Десятка (2014) WEB-DL 1080p

Фильмы в формате WEBRip/Avi и т.д.
 Статистика раздачи 
Размер: 2.46 ГБ   |  Зарегистрирован: Октябрь 8, 2014, 8:44 pm   |   .torrent скачан: 150 раз
Сидеров: 240  [ 0 байт/сек ]   Личеров: 217  [ 0 байт/сек ]  

Десятка (2014) WEB-DL 1080p

Сообщение sergey » Октябрь 8, 2014, 8:44 pm


Год выпуска: 2014
Производство: Россия / platzkart productions
Жанр: драма

Режиссер: Владимир Козлов
В ролях: Тимофей Яковец, Екатерина Еникеева, Илья Черных, Степан Гаврилов, Елена Рудковская, Илья Федотов, Игорь Красных, Герман Акимов, Евгений Соболев, Владимир Пашнин

Описание:
Драма по мотивам одноименной повести Владимира Козлова. Валера подавал большие надежды как футболист, но травма ставит крест на его спортивной карьере, и он, вернувшись в родной город, учится в ПТУ. Окружающие люди — мать, все вечера проводящая у телевизора, девушка Света, лишенная каких-либо амбиций, бывшие одноклассники, которых интересует только криминал, — вряд ли чем-то могут помочь. И, оказавшись чужим в окружающем мире, но не имея своего, Валера совершает иррациональные поступки.


Продолжительность: 01:21:42
Перевод: Не требуется
Cубтитры: Отсутствуют

Качество: WEB-DL
Видео: MPEG-4 AVC/H.264, 1912x816 (2.35:1), 4 000 kbps, 25.000 fps
Аудио 1: Русский, AAC / 2.0 / 125 Kbps / 48.0 KHz
Аудио 2: Русский, AAC / 5.1 / 192 Kbps / 48.0 KHz



General
Complete name : C:DownloadsDesiatka.2012.WEB-DL.1080p.O.m4v
Format : MPEG-4
Codec ID : M4V
File size : 2.46 GiB
Duration : 1h 21mn
Overall bit rate mode : Variable
Overall bit rate : 4 319 Kbps
Movie name : Десятка
Performer : Владимир Козлов
Genre : Drama
ContentType : Movie
Deion : Драма по мотивам одноименной повести Владимира Козлова. Валера подавал большие надежды как футболист, но травма ставит крест на его спортивной карьере, и он, вернувшись в родной город, учится в ПТУ.
Recorded date : UTC 2024-07-07 07:00:00
Encoded date : UTC 2014-10-08 08:33:04
Tagged date : UTC 2014-10-08 08:38:48
Copyright : platzkart productions
Cover : Yes
Comment : «Там, где возникает пустота»
ContentRating : ru-movie|18+|400|

Title/Sort : Desiatka
LongDeion : Драма по мотивам одноименной повести Владимира Козлова. Валера подавал большие надежды как футболист, но травма ставит крест на его спортивной карьере, и он, вернувшись в родной город, учится в ПТУ. Окружающие люди — мать, все вечера проводящая у телевизора, девушка Света, лишенная каких-либо амбиций, бывшие одноклассники, которых интересует только криминал, — вряд ли чем-то могут помочь. И, оказавшись чужим в окружающем мире, но не имея своего, Валера совершает иррациональные поступки.
AppleStoreCatalogID : 624638
Vendor : Apple:vendor_id:2014-624638

Video
ID : 1
Format : AVC
Format/Info : Advanced Video Codec
Format profile : High@L4.0
Format settings, CABAC : Yes
Format settings, ReFrames : 3 frames
Codec ID : avc1
Codec ID/Info : Advanced Video Coding
Duration : 1h 21mn
Bit rate : 4 000 Kbps
Maximum bit rate : 6 291 Kbps
Width : 1 912 pixels
Height : 816 pixels
Display aspect ratio : 2.35:1
Frame rate mode : Constant
Frame rate : 25.000 fps
Color space : YUV
Chroma subsampling : 4:2:0
Bit depth : 8 bits
Scan type : Progressive
Bits/(Pixel*Frame) : 0.103
Stream size : 2.28 GiB (93%)
Writing library : x264 core 142 r2389 956c8d8
Encoding settings : cabac=1 / ref=3 / deblock=1:0:0 / analyse=0x3:0x133 / me=umh / subme=7 / psy=1 / psy_rd=1.00:0.00 / mixed_ref=1 / me_range=32 / chroma_me=1 / trellis=2 / 8x8dct=1 / cqm=0 / deadzone=21,11 / fast_pskip=1 / chroma_qp_offset=-2 / threads=12 / lookahead_threads=2 / sliced_threads=0 / nr=0 / decimate=1 / interlaced=0 / bluray_compat=0 / constrained_intra=0 / bframes=0 / weightp=0 / keyint=75 / keyint_min=26 / scenecut=40 / intra_refresh=0 / rc_lookahead=50 / rc=2pass / mbtree=0 / bitrate=4000 / ratetol=1.0 / qcomp=0.20 / qpmin=10 / qpmax=51 / qpstep=4 / cplxblur=20.0 / qblur=0.5 / vbv_maxrate=5000 / vbv_bufsize=5000 / nal_hrd=none / filler=0 / ip_ratio=1.40 / aq=1:1.00
Language : Russian
Encoded date : UTC 2014-10-08 08:33:04
Tagged date : UTC 2014-10-08 08:33:24
Color primaries : BT.709
Transfer characteristics : BT.709
Matrix coefficients : BT.709

Audio #1
ID : 2
Format : AAC
Format/Info : Advanced Audio Codec
Format profile : LC
Codec ID : 40
Duration : 1h 21mn
Bit rate mode : Variable
Bit rate : 125 Kbps
Maximum bit rate : 184 Kbps
Channel(s) : 2 channels
Channel positions : Front: L R
Sampling rate : 48.0 KHz
Compression mode : Lossy
Stream size : 72.8 MiB (3%)
Language : Russian
Encoded date : UTC 2014-10-08 08:31:11
Tagged date : UTC 2014-10-08 08:33:24

Audio #2
ID : 3
Format : AC-3
Format/Info : Audio Coding 3
Mode extension : CM (complete main)
Format settings, Endianness : Big
Codec ID : ac-3
Duration : 1h 21mn
Bit rate mode : Constant
Bit rate : 192 Kbps
Channel(s) : 2 channels
Channel positions : Front: L R
Sampling rate : 48.0 KHz
Bit depth : 16 bits
Compression mode : Lossy
Stream size : 112 MiB (4%)
Language : Russian
Encoded date : UTC 2014-10-08 08:33:22
Tagged date : UTC 2014-10-08 08:33:24
   
Торрент: Зарегистрирован [Октябрь 8, 2014, 8:44 pm]
Видео WEBRip Скачать торрент Магнет ссылка Смотреть онлайн
Скачать торрент
[ Размер 12.84 КБ / Просмотров 7 ]
Статус:
Проверен
---
.torrent скачан: 150 раз
Приватный: Нет (DHT включён)
Размер: 2.46 ГБ (2 646 721 277)
   
Аватара пользователя
sergey
 
Раздал: 42.54 ТБ
Скачал: 198.69 ГБ
Ратио: 265.234
Сообщения: 5348
Зарегистрирован: Август 6, 2012, 2:11 pm
Откуда: СССР

Флаг страны: СССР

Вернуться в Видео WEBRip



Кто сейчас на конференции

Сейчас эту тему просматривают: нет зарегистрированных пользователей и гости: 1

Ресурс не содержит никакой другой информации, кроме описаний отдельных файлов или их групп, имеющихся у некоторых пользователей данного ресурса. Подтверждением наличия данных файлов у пользователя может иногда являться специальный набор значений, представляющих собой результаты применения односторонних хеш-функций к этим файлам или их группам. Данные наборы значений объединяются пользователями в единое целое и могут быть выложены ими вместе с описаниями имеющихся у них файлов. Администрация данного ресурса не имеет физической возможности убедиться, что описания файлов, выложенные нашими пользователями, равно как и созданные ими наборы хешей от файлов, соответствуют реальным файлам имеющимся у пользователей, а не созданы каким-либо иным способом.
cron
Яндекс.Метрика