Домашнее видео / Sex Tape (2014) HDRip-AVC от ExKinoRay | Чистый звук

Фильмы в формате DVD
 Статистика раздачи 
Размер: 2.05 ГБ   |  Зарегистрирован: Октябрь 9, 2014, 4:46 pm   |   .torrent скачан: 10 раз
Сидеров: 117  [ 0 байт/сек ]   Личеров: 3  [ 0 байт/сек ]  

Домашнее видео / Sex Tape (2014) HDRip-AVC от ExKinoRay | Чистый звук

Сообщение Denny » Октябрь 9, 2014, 4:46 pm



Информация о фильме
Название: Домашнее видео
Оригинальное название: Sex Tape
Год выпуска: 2014
Жанр: Комедия
Выпущено: США, Escape Artists, LStar Capital, Media Rights Capital, Sony Pictures Entertainment (SPE)
Режиссер: Джейк Кэздан
В ролях: Кэмерон Диаз, Джейсон Сигел, Роб Кордри, Элли Кемпер, Роб Лоу, Нат Факсон, Нэнси Ленехан, Жизелль Эйзенберг, Харрисон Хольцер, Себастьян Хеджес Томас

О фильме: Семейная пара, оставшись на одну ночь без детей, решает повеселиться, оживив свою сексуальную жизнь. На протяжении всей этой ночи наши главные герои резвились на кровати, записывая все свои эксперименты на видео. На следующее утро они обнаруживают, что видео видели не только они…

Файл
Качество: HDRip (AVC)
Видео: MPEG-4 AVC, 2261 Кбит/с, 720x388
Аудио: Русский (AC3, 2 ch, 384 Кбит/с), английский (AC3, 6 ch, 448 Кбит/с)
Продолжительность: 01:34:35
Перевод: Дублированный
Субтитры: Английские

General
Unique ID : 225415148667021316411063030331619455931 (0xA99560E3A5DE7E05AC4F9C4EE64CB3BB)
Complete name : C:Sex.Tape.2014.x264.HDRip.ExKinoRay.mkv
Format : Matroska
Format version : Version 2
File size : 2.05 GiB
Duration : 1h 34mn
Overall bit rate : 3 096 Kbps
Movie name : Домашнее видео 2014 from ExkinoRay
Encoded date : UTC 2014-10-07 04:59:54
Writing application : mkvmerge v4.9.1 ('Ich will') built on Jul 11 2011 23:53:15
Writing library : libebml v1.2.1 + libmatroska v1.1.1

Video
ID : 1
Format : AVC
Format/Info : Advanced Video Codec
Format profile : High@L4.1
Format settings, CABAC : Yes
Format settings, ReFrames : 8 frames
Codec ID : V_MPEG4/ISO/AVC
Duration : 1h 34mn
Bit rate : 2 261 Kbps
Width : 720 pixels
Height : 388 pixels
Display aspect ratio : 1.85:1
Frame rate mode : Constant
Frame rate : 23.976 fps
Color space : YUV
Chroma subsampling : 4:2:0
Bit depth : 8 bits
Scan type : Progressive
Bits/(Pixel*Frame) : 0.338
Stream size : 1.45 GiB (71%)
Title : Enigma
Writing library : x264 core 116 r2044 392e762
Encoding settings : cabac=1 / ref=8 / deblock=1:-2:-2 / analyse=0x3:0x113 / me=umh / subme=10 / psy=1 / psy_rd=1.00:0.20 / mixed_ref=1 / me_range=32 / chroma_me=1 / trellis=2 / 8x8dct=1 / cqm=0 / deadzone=21,11 / fast_pskip=0 / chroma_qp_offset=-3 / threads=12 / sliced_threads=0 / nr=0 / decimate=0 / interlaced=0 / bluray_compat=0 / constrained_intra=0 / bframes=9 / b_pyramid=2 / b_adapt=2 / b_bias=0 / direct=3 / weightb=1 / open_gop=0 / weightp=2 / keyint=240 / keyint_min=23 / scenecut=40 / intra_refresh=0 / rc=2pass / mbtree=0 / bitrate=2261 / ratetol=1.0 / qcomp=0.60 / qpmin=0 / qpmax=69 / qpstep=4 / cplxblur=20.0 / qblur=0.5 / ip_ratio=1.40 / pb_ratio=1.30 / aq=1:1.00
Default : Yes
Forced : No

Audio #1
ID : 2
Format : AC-3
Format/Info : Audio Coding 3
Mode extension : CM (complete main)
Format settings, Endianness : Big
Codec ID : A_AC3
Duration : 1h 34mn
Bit rate mode : Constant
Bit rate : 384 Kbps
Channel(s) : 2 channels
Channel positions : Front: L R
Sampling rate : 48.0 KHz
Bit depth : 16 bits
Compression mode : Lossy
Stream size : 260 MiB (12%)
Title : DUB (Line)
Language : Russian
Default : Yes
Forced : No

Audio #2
ID : 3
Format : AC-3
Format/Info : Audio Coding 3
Mode extension : CM (complete main)
Format settings, Endianness : Big
Codec ID : A_AC3
Duration : 1h 34mn
Bit rate mode : Constant
Bit rate : 448 Kbps
Channel(s) : 6 channels
Channel positions : Front: L C R, Side: L R, LFE
Sampling rate : 48.0 KHz
Bit depth : 16 bits
Compression mode : Lossy
Stream size : 303 MiB (14%)
Language : English
Default : No
Forced : No

Text
ID : 4
Format : UTF-8
Codec ID : S_TEXT/UTF8
Codec ID/Info : UTF-8 Plain Text
Title : Full
Language : English
Default : No
Forced : No

Menu
00:00:00.000 : en:00:00:00.000
00:03:53.483 : en:00:03:53.483
00:09:34.073 : en:00:09:34.073
00:14:36.626 : en:00:14:36.626
00:20:05.287 : en:00:20:05.287
00:27:21.014 : en:00:27:21.014
00:34:03.667 : en:00:34:03.667
00:40:19.167 : en:00:40:19.167
00:45:21.636 : en:00:45:21.636
00:50:42.706 : en:00:50:42.706
00:57:41.541 : en:00:57:41.541
01:05:34.556 : en:01:05:34.556
01:11:51.682 : en:01:11:51.682
01:20:06.510 : en:01:20:06.510
01:25:16.737 : en:01:25:16.737
01:29:47.299 : en:01:29:47.299





Релиз от:
Автор релиза:
   
Торрент: Зарегистрирован [Октябрь 9, 2014, 4:46 pm]
Видео DVD Скачать торрент Магнет ссылка Смотреть онлайн
Скачать торрент
[ Размер 10.84 КБ / Просмотров 0 ]
Статус:
Проверен
---
.torrent скачан: 10 раз
Приватный: Нет (DHT включён)
Размер: 2.05 ГБ (2 195 845 498)
   
Аватара пользователя
Denny
 
Раздал: 7.49 ТБ
Скачал: 807.97 ГБ
Ратио: 1007.499
Сообщения: 1934
Зарегистрирован: Ноябрь 19, 2012, 10:49 pm
Откуда: Россия

Флаг страны: Russia

  • Похожие торренты
    Ответы
    Просмотры
    Последнее сообщение

Вернуться в Видео DVD



Кто сейчас на конференции

Сейчас эту тему просматривают: нет зарегистрированных пользователей и гости: 1

cron
Ресурс не содержит никакой другой информации, кроме описаний отдельных файлов или их групп, имеющихся у некоторых пользователей данного ресурса. Подтверждением наличия данных файлов у пользователя может иногда являться специальный набор значений, представляющих собой результаты применения односторонних хеш-функций к этим файлам или их группам. Данные наборы значений объединяются пользователями в единое целое и могут быть выложены ими вместе с описаниями имеющихся у них файлов. Администрация данного ресурса не имеет физической возможности убедиться, что описания файлов, выложенные нашими пользователями, равно как и созданные ими наборы хешей от файлов, соответствуют реальным файлам имеющимся у пользователей, а не созданы каким-либо иным способом.
cron
Яндекс.Метрика