Запретная история [сезон 1: серии 1-6 из 6] / Forbidden History (Брюс Бёрджесс / Bruce Burgess) [2013, История, исследования, SATRip]

Телевизионные передачи, ТВ фильмы
 Статистика раздачи 
Размер: 3.86 ГБ   |  Зарегистрирован: Октябрь 14, 2014, 8:07 pm   |   .torrent скачан: 2 раз
Сидеров: 17  [ 0 байт/сек ]   Личеров: 0  [ 0 байт/сек ]  

Запретная история [сезон 1: серии 1-6 из 6] / Forbidden History (Брюс Бёрджесс / Bruce Burgess) [2013, История, исследования, SATRip]

Сообщение Denny » Октябрь 14, 2014, 8:07 pm



Запретная история [сезон 1: серии 1-6 из 6] / Forbidden History

Год выпуска: 2013
Страна: Великобритания
Жанр: История, исследования
Продолжительность: 6x~00:46:00
Перевод: Студийный (одноголосый закадровый) SDI-Media, Р. Антонович
Русские субтитры: нет

Режиссер: Брюс Бёрджесс / Bruce Burgess

Описание: Влиятельные лица не любят, когда новые факты и свидетельства ставят под вопрос давно устоявшиеся истины и представления, принятые как данность столетия назад. В течение многих лет множество уникальных историй и фактов были скрыты или преданы забвению. Однако нашлись смельчаки, которые попытались рассказать правду, которая скрывалась от людей веками. Анализируя и изучая факты и различные свидетельства, и проводя свое собственное расследование, Джейми Тикстон попытается ответить на вопрос – Насколько наши знания о некоторых исторических фактах истинны?


качество: SATRip
формат: AVI
Видео: Xvid 720x400 25fps 1799kbps
Аудио: Dolby AC3 48000Hz stereo 192kbps

01. Потерянные сокровища Тамплиеров / The lost treasures of the Templars - Правда ли что тамплиеры нашли великое сокровище в Иерусалиме, привезли ли они его в Европу и стали ли могущественней папы Римского ? Когда французский король приказал арестовать их имущество почему не нашли сокровища, куда они делись и где они сегодня ?

02. Третья тайна Фатимы / The Third Secrets of Fatima
Слышали ли трое детей предсказание апокалипсиса здесь в Фатиме в 1917 году, было ли предупреждение очумии и разрушении церкви и скрывал ли Ватикан эту тайну почти век ? Если эти явления были на самом деле, то единственное возможное объяснение - грядёт апокалипсис или конец церкви

03. Генеалогическая линия Христа / The Bloodline of Christ - Иисус - был ли реальным раввином из плоти и крови, был ли он женат и имел детей, и действительно ли его жену увезли тайком на судне из Иерусалима на юг Франции ? Но было ли так на самом деле ? Какие свидетельства доказывают теорию кровной линии ?

04. Тайны гигантов / The Mystery of the Giants - Почему во многих культурах мира говорится о гигантах, это просто мифы и легенды или они некогда ходили по земле и это их скелеты были найдены на Сардинии ? Многие доказательства были скрыты потому, что не соответствовали официальным научным канонам.

05. Сокровища Соломона / The Treasure of Solomon - Правда ли, что первосвященники храма Иерусалимского спрятали свои святыни перед тем, как на город напали римляне ? Возможно ли что один из свитков мёртвого моря является картой, указывающей путь к скрытому кладу, ждут ли исследователей новые открытия в этом древнем городе ?

06. Секреты алхимиков / The Secrets Of The Alchemists - Настрадамус, Николя Фламель, Джон Ди - кем были эти алхимики имевшие огромное влияние на королей, и королев, и императоров, хитрыми фокусниками или они действительно могли предсказывать будущее и превращать свинец в золото, если да, то как они это делали ?
Код: Выделить всё
Video
ID                             : 0
Format                         : MPEG-4 Visual
Format profile                 : Advanced Simple@L5
Format settings, BVOP          : 2
Format settings, QPel          : No
Format settings, GMC           : No warppoints
Format settings, Matrix        : Default (H.263)
Codec ID                       : XVID
Codec ID/Hint                  : XviD
Duration                       : 46mn 27s
Bit rate                       : 1 800 Kbps
Width                          : 720 pixels
Height                         : 400 pixels
Display aspect ratio           : 16:9
Frame rate                     : 25.000 fps
Color space                    : YUV
Chroma subsampling             : 4:2:0
Bit depth                      : 8 bits
Scan type                      : Progressive
Compression mode               : Lossy
Bits/(Pixel*Frame)             : 0.250
Stream size                    : 598 MiB (90%)
Writing library                : XviD 1.2.1 (UTC 2008-12-04)

Audio
ID                             : 1
Format                         : AC-3
Format/Info                    : Audio Coding 3
Mode extension                 : CM (complete main)
Format settings, Endianness    : Big
Codec ID                       : 2000
Duration                       : 46mn 27s
Bit rate mode                  : Constant
Bit rate                       : 192 Kbps
Channel(s)                     : 2 channels
Channel positions              : Front: L R
Sampling rate                  : 48.0 KHz
Bit depth                      : 16 bits
Compression mode               : Lossy
Stream size                    : 63.8 MiB (10%)
Alignment                      : Split accross interleaves
Interleave, duration           : 40 ms (1.00 video frame)
Interleave, preload duration   : 500 ms
   
Торрент: Зарегистрирован [Октябрь 14, 2014, 8:07 pm]
Телевидение Скачать торрент Магнет ссылка Смотреть онлайн
Скачать торрент
[ Размер 20.29 КБ / Просмотров 19 ]
Статус:
Проверен
---
.torrent скачан: 2 раз
Приватный: Нет (DHT включён)
Размер: 3.86 ГБ (4 142 386 300)
   
Аватара пользователя
Denny
 
Раздал: 7.49 ТБ
Скачал: 807.97 ГБ
Ратио: 1007.499
Сообщения: 1934
Зарегистрирован: Ноябрь 19, 2012, 10:49 pm
Откуда: Россия

Флаг страны: Russia

Вернуться в Телевидение



Кто сейчас на конференции

Сейчас эту тему просматривают: нет зарегистрированных пользователей и гости: 1

Ресурс не содержит никакой другой информации, кроме описаний отдельных файлов или их групп, имеющихся у некоторых пользователей данного ресурса. Подтверждением наличия данных файлов у пользователя может иногда являться специальный набор значений, представляющих собой результаты применения односторонних хеш-функций к этим файлам или их группам. Данные наборы значений объединяются пользователями в единое целое и могут быть выложены ими вместе с описаниями имеющихся у них файлов. Администрация данного ресурса не имеет физической возможности убедиться, что описания файлов, выложенные нашими пользователями, равно как и созданные ими наборы хешей от файлов, соответствуют реальным файлам имеющимся у пользователей, а не созданы каким-либо иным способом.
cron
Яндекс.Метрика