От колыбели до могилы / Cradle 2 the Grave (2003) BDRip-AVC | P

Фильмы в формате DVD
 Статистика раздачи 
Размер: 1.46 ГБ   |  Зарегистрирован: Октябрь 20, 2014, 11:19 pm   |   .torrent скачан: 118 раз
Сидеров: 40  [ 0 байт/сек ]   Личеров: 3  [ 0 байт/сек ]  

От колыбели до могилы / Cradle 2 the Grave (2003) BDRip-AVC | P

Сообщение Denny » Октябрь 20, 2014, 11:19 pm



Информация о фильме
Название: От колыбели до могилы
Оригинальное название: Cradle 2 the Grave
Год выхода: 2003
Жанр: боевик, триллер, драма, криминал
Режиссер: Анджей Бартковяк
В ролях: Джет Ли, DMX, Энтони Андерсон, Келли Ху, Том Арнольд, Марк Дакаскос, Гэбриэл Юнион, Майкл Джейс, Драг-Он, Пейдж Херд

О фильме:
Профессиональный грабитель и секретный агент объединяют свои усилия в борьбе против банды свирепых гангстеров под руководством жестокого мафиози... В центре сюжета - бесценные сокровища - черные алмазы из Тайваня. Сначала их похищает банда чернокожего вора Тони Фейта. Но драгоценности приносят ему лишь неприятности: хозяин камешков, торговец оружием Линг, похищает дочь Фейта и требует вернуть бриллианты. Только возвращать уже нечего: камни снова украдены, на этот раз бандой местного мафиози Джамба Чемберса. Чтобы вернуть дочь и уцелеть самому, Фейт вынужден объединиться с агентом тайваньской разведки Су, который тоже идет по следу бриллиантов. Дело в том, что черные алмазы - совсем не ювелирные драгоценности...

Выпущено: США, Silver Pictures
Продолжительность: 01:41:12
Перевод: Профессиональный (Многоголосый закадровый |DVD R5|)

Файл
Качество: BDRip-AVC
Видео: 944x392 (2.40:1) at 23.976 fps, 1673 kbps
Звук: AC3, 6ch (L, C, R, Ls, Rs +LFE), 384 кбит/с



General
Unique ID : 217118625843445800200631991557533387134 (0xA35786BB923D1F3CB856355EAEF2C97E)
Complete name : Ot.Kolybeli.do.Mogily.(2003).BDRip-AVC.[-=DoMiNo=-].mkv
Format : Matroska
Format version : Version 2
File size : 1.46 GiB
Duration : 1h 41mn
Overall bit rate : 2 059 Kbps
Encoded date : UTC 2014-03-30 17:37:09
Writing application : mkvmerge v6.1.0 ('Old Devil') built on Mar 4 2013 09:10:42
Writing library : libebml v1.3.0 + libmatroska v1.4.0

Video
ID : 1
Format : AVC
Format/Info : Advanced Video Codec
Format profile : High@L4.1
Format settings, CABAC : Yes
Format settings, ReFrames : 12 frames
Codec ID : V_MPEG4/ISO/AVC
Duration : 1h 41mn
Bit rate : 1 673 Kbps
Width : 944 pixels
Height : 392 pixels
Display aspect ratio : 2.40:1
Frame rate mode : Constant
Frame rate : 23.976 fps
Color space : YUV
Chroma subsampling : 4:2:0
Bit depth : 8 bits
Scan type : Progressive
Bits/(Pixel*Frame) : 0.189
Stream size : 1.16 GiB (79%)
Writing library : x264 core 130 r2273 b3065e6
Encoding settings : cabac=1 / ref=12 / deblock=1:-3:-3 / analyse=0x3:0x133 / me=umh / subme=11 / psy=1 / psy_rd=1.00:0.20 / mixed_ref=1 / me_range=32 / chroma_me=1 / trellis=2 / 8x8dct=1 / cqm=0 / deadzone=21,11 / fast_pskip=0 / chroma_qp_offset=-6 / threads=16 / lookahead_threads=4 / sliced_threads=0 / slices=4 / nr=0 / decimate=1 / interlaced=0 / bluray_compat=0 / constrained_intra=0 / bframes=10 / b_pyramid=2 / b_adapt=2 / b_bias=0 / direct=3 / weightb=1 / open_gop=0 / weightp=2 / keyint=240 / keyint_min=23 / scenecut=40 / intra_refresh=0 / rc_lookahead=50 / rc=2pass / mbtree=1 / bitrate=1673 / ratetol=1.0 / qcomp=0.60 / qpmin=10 / qpmax=51 / qpstep=4 / cplxblur=20.0 / qblur=0.5 / ip_ratio=1.40 / aq=1:1.50
Default : Yes
Forced : No

Audio
ID : 2
Format : AC-3
Format/Info : Audio Coding 3
Mode extension : CM (complete main)
Format settings, Endianness : Big
Codec ID : A_AC3
Duration : 1h 41mn
Bit rate mode : Constant
Bit rate : 384 Kbps
Channel(s) : 6 channels
Channel positions : Front: L C R, Side: L R, LFE
Sampling rate : 48.0 KHz
Bit depth : 16 bits
Compression mode : Lossy
Stream size : 278 MiB (19%)
Default : Yes
Forced : No
   
Торрент: Зарегистрирован [Октябрь 20, 2014, 11:19 pm]
Видео DVD Скачать торрент Магнет ссылка Смотреть онлайн
Скачать торрент
[ Размер 15.19 КБ / Просмотров 1 ]
Статус:
Проверен
---
.torrent скачан: 118 раз
Приватный: Нет (DHT включён)
Размер: 1.46 ГБ (1 563 172 354)
   
Аватара пользователя
Denny
 
Раздал: 7.49 ТБ
Скачал: 807.97 ГБ
Ратио: 1007.499
Сообщения: 1934
Зарегистрирован: Ноябрь 19, 2012, 10:49 pm
Откуда: Россия

Флаг страны: Russia

Вернуться в Видео DVD



Кто сейчас на конференции

Сейчас эту тему просматривают: нет зарегистрированных пользователей и гости: 1

Ресурс не содержит никакой другой информации, кроме описаний отдельных файлов или их групп, имеющихся у некоторых пользователей данного ресурса. Подтверждением наличия данных файлов у пользователя может иногда являться специальный набор значений, представляющих собой результаты применения односторонних хеш-функций к этим файлам или их группам. Данные наборы значений объединяются пользователями в единое целое и могут быть выложены ими вместе с описаниями имеющихся у них файлов. Администрация данного ресурса не имеет физической возможности убедиться, что описания файлов, выложенные нашими пользователями, равно как и созданные ими наборы хешей от файлов, соответствуют реальным файлам имеющимся у пользователей, а не созданы каким-либо иным способом.
cron
Яндекс.Метрика