Почтальон Пэт / Postman Pat: The Movie (2014) HDRip | D | Чистый звук

Мультфильмы
 Статистика раздачи 
Размер: 1.37 ГБ   |  Зарегистрирован: Октябрь 20, 2014, 11:25 pm   |   .torrent скачан: 11 раз
Сидеров: 406  [ 0 байт/сек ]   Личеров: 12  [ 0 байт/сек ]  

Почтальон Пэт / Postman Pat: The Movie (2014) HDRip | D | Чистый звук

Сообщение Denny » Октябрь 20, 2014, 11:25 pm



Информация о фильме
Название: Почтальон Пэт
Оригинальное название: Postman Pat: The Movie
Год выхода: 2014
Жанр: Мультфильм, комедия, семейный
Режиссёр: Майкл Д’Иса-Хоган
В ролях: Джим Бродбент, Джейн Карр, Робин Аткин Даунс, Сьюзэн Дюрден, Грег Эллис, Руперт Гринт, Дэн Хилдебранд, Ронан Китинг, Стивен Мэнгэн, Парминдер К. Награ

О фильме:
Сколько нужно почтальонов для спасения мира? Достаточно одного, если он работает в паре с любопытным котом, готовым к любым приключениям.

Страна: Великобритания, США
Студия: Classic Media, RGH Entertainment, Rubicon Group Holding
Продолжительность: 01:27:51
Перевод: Дублированный [Чистый звук]
Оригинальная аудио-дорожка: Нет

Файл
Кодек: XviD
Качество: HDRip
Видео: XviD, 720x384 (1.875), 2025 Кбит/с, 23,976 кадр/с
Аудио: Русский, Dolby AC3, 48000 Гц, 192 Кбит/с, 2 канала (Стерео) - Dub (Line)
Субтитры: Нет

General
Complete name : Po4taljon.Pet.2014.D.HDRip.avi
Format : AVI
Format/Info : Audio Video Interleave
File size : 1.37 GiB
Duration : 1h 27mn
Overall bit rate : 2 226 Kbps
Writing application : VirtualDubMod 1.5.10.2 (build 2540/release)
Writing library : VirtualDubMod build 2540/release

Video
ID : 0
Format : MPEG-4 Visual
Format profile : Advanced Simple@L5
Format settings, BVOP : 2
Format settings, QPel : No
Format settings, GMC : No warppoints
Format settings, Matrix : Default (MPEG)
Codec ID : XVID
Codec ID/Hint : XviD
Duration : 1h 27mn
Bit rate : 2 025 Kbps
Width : 720 pixels
Height : 384 pixels
Display aspect ratio : 1.875
Frame rate : 23.976 fps
Color space : YUV
Chroma subsampling : 4:2:0
Bit depth : 8 bits
Scan type : Progressive
Compression mode : Lossy
Bits/(Pixel*Frame) : 0.305
Stream size : 1.24 GiB (91%)
Writing library : XviD 1.2.1 (UTC 2008-12-04)

Audio
ID : 1
Format : AC-3
Format/Info : Audio Coding 3
Mode extension : CM (complete main)
Codec ID : 2000
Duration : 1h 27mn
Bit rate mode : Constant
Bit rate : 192 Kbps
Channel(s) : 2 channels
Channel positions : Front: L R
Sampling rate : 48.0 KHz
Bit depth : 16 bits
Compression mode : Lossy
Stream size : 121 MiB (9%)
Alignment : Split accross interleaves
Interleave, duration : 42 ms (1.00 video frame)
Interleave, preload duration : 500 ms
   
Торрент: Зарегистрирован [Октябрь 20, 2014, 11:25 pm]
Мультфильмы Скачать торрент Магнет ссылка Смотреть онлайн
Скачать торрент
[ Размер 14.22 КБ / Просмотров 0 ]
Статус:
Проверен
---
.torrent скачан: 11 раз
Приватный: Нет (DHT включён)
Размер: 1.37 ГБ (1 466 869 760)
   
Аватара пользователя
Denny
 
Раздал: 7.49 ТБ
Скачал: 807.97 ГБ
Ратио: 1007.499
Сообщения: 1934
Зарегистрирован: Ноябрь 19, 2012, 10:49 pm
Откуда: Россия

Флаг страны: Russia

Вернуться в Мультфильмы



Кто сейчас на конференции

Сейчас эту тему просматривают: нет зарегистрированных пользователей и гости: 1

Ресурс не содержит никакой другой информации, кроме описаний отдельных файлов или их групп, имеющихся у некоторых пользователей данного ресурса. Подтверждением наличия данных файлов у пользователя может иногда являться специальный набор значений, представляющих собой результаты применения односторонних хеш-функций к этим файлам или их группам. Данные наборы значений объединяются пользователями в единое целое и могут быть выложены ими вместе с описаниями имеющихся у них файлов. Администрация данного ресурса не имеет физической возможности убедиться, что описания файлов, выложенные нашими пользователями, равно как и созданные ими наборы хешей от файлов, соответствуют реальным файлам имеющимся у пользователей, а не созданы каким-либо иным способом.
cron
Яндекс.Метрика