Одно движение Божье / Ход Бога / God's One Move / The Divine Move (Пом Гю Чо / Beom-gu Cho) [2014, Южная Корея, Драма, криминал, боевик, HDTVRip] DVO (DeadSno & den904)

Фильмы высокого разрешения в формате HDTV
 Статистика раздачи 
Размер: 1.37 ГБ   |  Зарегистрирован: Октябрь 21, 2014, 9:50 pm   |   .torrent скачан: 2 раз
Сидеров: 3  [ 0 байт/сек ]   Личеров: 1  [ 0 байт/сек ]  

Одно движение Божье / Ход Бога / God's One Move / The Divine Move (Пом Гю Чо / Beom-gu Cho) [2014, Южная Корея, Драма, криминал, боевик, HDTVRip] DVO (DeadSno & den904)

Сообщение Denny » Октябрь 21, 2014, 9:50 pm



Одно движение Божье / Ход Бога / God's One Move / The Divine Move

Год выпуска: 2014
Страна: Южная Корея
Жанр: Драма, криминал, боевик
Продолжительность: 01:57:49
Перевод: Любительский (двухголосый закадровый) (DeadSno & den904)
Cубтитры: Нет
Режиссер: Пом Гю Чо / Beom-gu Cho
В ролях: Киль Кан Ан, Сон Ги Ан, Чжин Хёк Чхве, У Сон Чон, Ин Квон Ким, Бом Су Ли, Си Ён Ли, Мён Су Ким (II), Иль Хва Чхве, Тхэ Вон Квон, Сон У Пэ, Со Хён Ан, Хэ Кён Чон
Описание: Тэ-сок — профессиональный игрок в Го. Его брат любил играть в Го на деньги и был убит группировкой шулеров. Освободившись из тюрьмы, Тэ-сок собирает команду единомышленников и ставит перед собой цель — отомстить за смерть брата.

Качество видео: HDTVRip
Формат видео: AVI

Видео: DivX 5, 720x304, 23.976fps, 1465kbps
Аудио: AC3, 48000Hz, 2ch, 192kbps
General
Complete name : Odno.dvijenie.bojie.2014.HDTVRip.avi
Format : AVI
Format/Info : Audio Video Interleave
File size : 1.37 GiB
Duration : 1h 57mn
Overall bit rate : 1 667 Kbps
Writing application : VirtualDubMod 1.5.10.3 | http://www.virtualdub-fr.org || (build 2550/release)
Writing library : VirtualDubMod build 2550/release

Video
ID : 0
Format : MPEG-4 Visual
Format profile : Advanced Simple@L5
Format settings, BVOP : Yes
Format settings, QPel : No
Format settings, GMC : No warppoints
Format settings, Matrix : Default (MPEG)
Codec ID : DX50
Codec ID/Hint : DivX 5
Duration : 1h 57mn
Bit rate : 1 465 Kbps
Width : 720 pixels
Height : 304 pixels
Display aspect ratio : 2.35:1
Frame rate : 23.976 fps
Color space : YUV
Chroma subsampling : 4:2:0
Bit depth : 8 bits
Scan type : Progressive
Compression mode : Lossy
Bits/(Pixel*Frame) : 0.279
Stream size : 1.21 GiB (88%)
Writing library : XviD 1.2.1 (UTC 2008-12-04)

Audio
ID : 1
Format : AC-3
Format/Info : Audio Coding 3
Mode extension : CM (complete main)
Format settings, Endianness : Big
Codec ID : 2000
Duration : 1h 57mn
Bit rate mode : Constant
Bit rate : 192 Kbps
Channel(s) : 2 channels
Channel positions : Front: L R
Sampling rate : 48.0 KHz
Bit depth : 16 bits
Compression mode : Lossy
Stream size : 162 MiB (12%)
Alignment : Split accross interleaves
Interleave, duration : 42 ms (1.00 video frame)
Interleave, preload duration : 500 ms
   
Торрент: Зарегистрирован [Октябрь 21, 2014, 9:50 pm]
Видео HDTV Скачать торрент Магнет ссылка Смотреть онлайн
Скачать торрент
[ Размер 14.22 КБ / Просмотров 22 ]
Статус:
Проверен
---
.torrent скачан: 2 раз
Приватный: Нет (DHT включён)
Размер: 1.37 ГБ (1 472 706 560)
   
Аватара пользователя
Denny
 
Раздал: 7.49 ТБ
Скачал: 807.97 ГБ
Ратио: 1007.499
Сообщения: 1934
Зарегистрирован: Ноябрь 19, 2012, 10:49 pm
Откуда: Россия

Флаг страны: Russia

Вернуться в Видео HDTV



Кто сейчас на конференции

Сейчас эту тему просматривают: нет зарегистрированных пользователей и гости: 1

Ресурс не содержит никакой другой информации, кроме описаний отдельных файлов или их групп, имеющихся у некоторых пользователей данного ресурса. Подтверждением наличия данных файлов у пользователя может иногда являться специальный набор значений, представляющих собой результаты применения односторонних хеш-функций к этим файлам или их группам. Данные наборы значений объединяются пользователями в единое целое и могут быть выложены ими вместе с описаниями имеющихся у них файлов. Администрация данного ресурса не имеет физической возможности убедиться, что описания файлов, выложенные нашими пользователями, равно как и созданные ими наборы хешей от файлов, соответствуют реальным файлам имеющимся у пользователей, а не созданы каким-либо иным способом.
cron
Яндекс.Метрика