Ярость: Смертная казнь / Rampage: Capital Punishment (2014) BDRip-AVC от ExKinoRay | L1

Фильмы в формате DVD
 Статистика раздачи 
Размер: 2.18 ГБ   |  Зарегистрирован: Ноябрь 10, 2014, 4:55 pm   |   .torrent скачан: 1214 раз
Сидеров: 219  [ 0 байт/сек ]   Личеров: 188  [ 0 байт/сек ]  

Ярость: Смертная казнь / Rampage: Capital Punishment (2014) BDRip-AVC от ExKinoRay | L1

Сообщение sergey » Ноябрь 10, 2014, 4:55 pm

Информация о фильме
Название: Ярость: Смертная казнь
Оригинальное название: Rampage: Capital Punishment
Год выхода: 2014
Жанр: Боевик, триллер, криминал
Режиссер: Уве Болл / Uwe Boll
В ролях: Брендан Флетчер, Локлин Манро, Майк Допуд, Михаэлла Манн, Брюс Блэйн, Джон Сэмпсон, Нэйтан Лефельдт, Михаэла Росс, Уве Болл, Мэтт Фрюэр...

О фильме:
Со времен жестокого буйства Билла Уильямсона проходит несколько лет. Властям не под силу отыскать и изолировать его. Хотя Билл регулярно распространяет в Интернете свои фото и клипы, свидетельствующие о его радикальном мировоззрении. Его появления ждут, ведь у его идей много сторонников. Но Биллу недостаточно такого внимания, он готовит новый грандиозный план. Используя созданные им пуленепробиваемые доспехи, он захватывает телевизионную станцию и удерживает в заложниках ряд людей. Его лозунг прост "Убей богатых!" Била совершенно не интересуют деньги, основная цель - пробудить человечество и уничтожить Вашингтон, ведь правительство США цинично обманывает людей. И неважно, сколько жертв потребует эта кровавая акция.

Страна: Канада, Германия
Студия: Boll Kino Beteiligungs GmbH & Co. KG
Файл
Качество: BDRip (AVC)
Видео: MPEG-4 AVC, 2458 Kбит/с, 1024x576
Аудио: Русский, английский (AC3, 6 ch, 448 Кбит/с)
Продолжительность: 01:32:53
Перевод: Любительский одноголосый Александр Харченко
Субтитры: Английские

Внимание:
Перевод с ненормативной лексикой!

General
Unique ID : 184493377414363187099715875715333177231 (0x8ACC21CB6E15DCBB807CDF5BA94F3F8F)
Complete name : C:Rampage.Capital.Punishment.2014.BDRip.AVC.ExKinoRay.mkv
Format : Matroska
Format version : Version 2
File size : 2.18 GiB
Duration : 1h 32mn
Overall bit rate : 3 353 Kbps
Movie name : Rampage Capital Punishment 2014 from ExKinoRay
Encoded date : UTC 2014-11-10 01:54:00
Writing application : mkvmerge v4.9.1 ('Ich will') built on Jul 11 2011 23:53:15
Writing library : libebml v1.2.1 + libmatroska v1.1.1

Video
ID : 1
Format : AVC
Format/Info : Advanced Video Codec
Format profile : High@L4.1
Format settings, CABAC : Yes
Format settings, ReFrames : 9 frames
Codec ID : V_MPEG4/ISO/AVC
Duration : 1h 32mn
Bit rate : 2 458 Kbps
Width : 1 024 pixels
Height : 576 pixels
Display aspect ratio : 16:9
Frame rate mode : Constant
Frame rate : 23.976 fps
Color space : YUV
Chroma subsampling : 4:2:0
Bit depth : 8 bits
Scan type : Progressive
Bits/(Pixel*Frame) : 0.174
Stream size : 1.55 GiB (71%)
Title : Enigma-Vladislav71
Writing library : x264 core 133 r2334 a3ac64b
Encoding settings : cabac=1 / ref=9 / deblock=1:-2:-2 / analyse=0x3:0x113 / me=umh / subme=11 / psy=1 / psy_rd=1.00:0.15 / mixed_ref=1 / me_range=32 / chroma_me=1 / trellis=2 / 8x8dct=1 / cqm=0 / deadzone=21,11 / fast_pskip=0 / chroma_qp_offset=-3 / threads=12 / lookahead_threads=2 / sliced_threads=0 / nr=0 / decimate=0 / interlaced=0 / bluray_compat=0 / constrained_intra=0 / bframes=9 / b_pyramid=2 / b_adapt=2 / b_bias=0 / direct=3 / weightb=1 / open_gop=0 / weightp=2 / keyint=240 / keyint_min=23 / scenecut=40 / intra_refresh=0 / rc=2pass / mbtree=0 / bitrate=2458 / ratetol=1.0 / qcomp=0.60 / qpmin=0 / qpmax=69 / qpstep=4 / cplxblur=20.0 / qblur=0.5 / ip_ratio=1.40 / pb_ratio=1.30 / aq=1:1.00
Default : Yes
Forced : No
Color primaries : BT.709
Transfer characteristics : BT.709
Matrix coefficients : BT.709

Audio #1
ID : 2
Format : AC-3
Format/Info : Audio Coding 3
Mode extension : CM (complete main)
Format settings, Endianness : Big
Codec ID : A_AC3
Duration : 1h 32mn
Bit rate mode : Constant
Bit rate : 448 Kbps
Channel(s) : 6 channels
Channel positions : Front: L C R, Side: L R, LFE
Sampling rate : 48.0 KHz
Bit depth : 16 bits
Compression mode : Lossy
Stream size : 298 MiB (13%)
Title : VO Александр Харченко
Language : Russian
Default : Yes
Forced : No

Audio #2
ID : 3
Format : AC-3
Format/Info : Audio Coding 3
Mode extension : CM (complete main)
Format settings, Endianness : Big
Codec ID : A_AC3
Duration : 1h 32mn
Bit rate mode : Constant
Bit rate : 448 Kbps
Channel(s) : 6 channels
Channel positions : Front: L C R, Side: L R, LFE
Sampling rate : 48.0 KHz
Bit depth : 16 bits
Compression mode : Lossy
Stream size : 298 MiB (13%)
Language : English
Default : No
Forced : No

Text
ID : 4
Format : UTF-8
Codec ID : S_TEXT/UTF8
Codec ID/Info : UTF-8 Plain Text
Language : English
Default : No
Forced : No





   
Торрент: Зарегистрирован [Ноябрь 10, 2014, 4:55 pm]
Видео DVD Скачать торрент Магнет ссылка Смотреть онлайн
Скачать торрент
[ Размер 11.5 КБ / Просмотров 0 ]
Статус:
Проверен
---
.torrent скачан: 1214 раз
Приватный: Нет (DHT включён)
Размер: 2.18 ГБ (2 335 803 104)
   
Аватара пользователя
sergey
 
Раздал: 42.54 ТБ
Скачал: 198.69 ГБ
Ратио: 265.263
Сообщения: 5358
Зарегистрирован: Август 6, 2012, 2:11 pm
Откуда: СССР

Флаг страны: СССР

Вернуться в Видео DVD



Кто сейчас на конференции

Сейчас эту тему просматривают: нет зарегистрированных пользователей и гости: 1

Ресурс не содержит никакой другой информации, кроме описаний отдельных файлов или их групп, имеющихся у некоторых пользователей данного ресурса. Подтверждением наличия данных файлов у пользователя может иногда являться специальный набор значений, представляющих собой результаты применения односторонних хеш-функций к этим файлам или их группам. Данные наборы значений объединяются пользователями в единое целое и могут быть выложены ими вместе с описаниями имеющихся у них файлов. Администрация данного ресурса не имеет физической возможности убедиться, что описания файлов, выложенные нашими пользователями, равно как и созданные ими наборы хешей от файлов, соответствуют реальным файлам имеющимся у пользователей, а не созданы каким-либо иным способом.
cron
Яндекс.Метрика