Уик-энд / Weekend (2014) WEB-DLRip-AVC от New-Team

Фильмы в формате WEBRip/Avi и т.д.
 Статистика раздачи 
Размер: 1.46 ГБ   |  Зарегистрирован: Декабрь 11, 2014, 11:59 am   |   .torrent скачан: 1842 раз
Сидеров: 164  [ 0 байт/сек ]   Личеров: 7  [ 0 байт/сек ]  

Уик-энд / Weekend (2014) WEB-DLRip-AVC от New-Team

Сообщение sergey » Декабрь 11, 2014, 11:59 am

Страна: Россия
Жанр: драма, детектив, криминал
Год выпуска: 2014
Продолжительность: 01:36:48

Перевод: Не требуется (русский)
Cубтитры: Нет

Режиссер:
Станислав Говорухин

В ролях:
Максим Матвеев, Екатерина Гусева, Александр Домогаров, Виктор Сухоруков, Виктор Сергачев, Юлия Пересильд, Марина Орлова, Татьяна Коновалова, Вячеслав Чепурченко, Юлия Хлынина

Описание:
Главное действующее лицо фильма — Игорь Лебедев — финансовый директор крупной корпорации. Он совершает убийство бухгалтера, который знал о его нечистых махинациях и пытался восстановить справедливость.


Автор рипа: Stalker oK

Сэмпл: multi-up

Качество видео: WEB-DLRip-AVC
Формат видео: MKV
Видео кодек: AVC
Аудио кодек: AC3
Видео: 1778 Кбит/сек, 1024*576 (16:9), в 24,000 кадр/сек, AVC
Аудио: Russian, 384 Кбит/сек, 48,0 КГц, 16 бит, 6 канала(ов), AC-3
Общее
Уникальный идентификатор : 211346811701958830810834013055303081866 (0x9EFFEA531DD3B400B75F61406E88DF8A)
Полное имя : G:временные файлыУик-энд WeekendWeekend.2014.WEB-DLRip-AVC.MVO.1.45Gb...stalkerok.new-team.mkv
Формат : Matroska
Размер файла : 1,46 Гбайт
Продолжительность : 1 ч. 36 м.
Общий поток : 2163 Кбит/сек
Название фильма : Weekend, 2014 (New-Team) (Rip by Stalker oK)
Дата кодирования : UTC 2014-11-20 18:51:38
Программа кодирования : mkvmerge v6.1.0 ('Old Devil') built on Mar 4 2013 09:10:42
Библиотека кодирования : libebml v1.3.0 + libmatroska v1.4.0

Видео
Идентификатор : 1
Формат : AVC
Формат/Информация : Advanced Video Codec
Профиль формата : High@L4.1
Параметр CABAC формата : Да
Параметр ReFrames формата : 12 кадры
Идентификатор кодека : V_MPEG4/ISO/AVC
Продолжительность : 1 ч. 36 м.
Битрейт : 1778 Кбит/сек
Ширина : 1024 пикс.
Высота : 576 пикс.
Соотношение сторон : 16:9
Частота кадров : 24,000 кадр/сек
Цветовое пространство : YUV
Подвыборка цветности : 4:2:0
Битовая глубина : 8 бит
Тип развёртки : Прогрессивная
Бит/(Пиксели*Кадры) : 0.126
Размер потока : 1,17 Гбайт (80%)
Библиотека кодирования : x264 core 142 r2491kMod 24e4fed
Настройки программы : cabac=1 / ref=12 / deblock=1:-3:-3 / analyse=0x3:0x133 / me=umh / subme=11 / psy=1 / fade_compensate=0.00 / psy_rd=1.00:0.10 / mixed_ref=1 / me_range=32 / chroma_me=1 / trellis=2 / 8x8dct=1 / cqm=0 / deadzone=21,11 / fast_pskip=0 / chroma_qp_offset=-3 / threads=12 / lookahead_threads=3 / sliced_threads=0 / nr=0 / decimate=0 / interlaced=0 / bluray_compat=0 / constrained_intra=0 / fgo=0 / bframes=14 / b_pyramid=2 / b_adapt=2 / b_bias=0 / direct=3 / weightb=1 / open_gop=0 / weightp=2 / keyint=240 / keyint_min=24 / scenecut=40 / intra_refresh=0 / rc_lookahead=60 / rc=2pass / mbtree=0 / bitrate=1778 / ratetol=1.0 / qcomp=0.70 / qpmin=0 / qpmax=69 / qpstep=4 / cplxblur=20.0 / qblur=0.5 / vbv_maxrate=50000 / vbv_bufsize=62500 / nal_hrd=none / filler=0 / ip_ratio=1.40 / pb_ratio=1.30 / aq=3:1.00

Аудио
Идентификатор : 2
Формат : AC-3
Формат/Информация : Audio Coding 3
Расширение режима : CM (complete main)
Идентификатор кодека : A_AC3
Продолжительность : 1 ч. 36 м.
Вид битрейта : Постоянный
Битрейт : 384 Кбит/сек
Канал(ы) : 6 канала(ов)
Расположение каналов : Front: L C R, Side: L R, LFE
Частота : 48,0 КГц
Битовая глубина : 16 бит
Метод сжатия : С потерями
Размер потока : 266 Мбайт (18%)
Заголовок : AC3 5.1 @ 384 kbps
Язык : Russian

Меню
00:00:00.000 : en:Глава 1
00:06:44.000 : en:Глава 2
00:10:57.000 : en:Глава 3
00:15:20.000 : en:Глава 4
00:20:02.000 : en:Глава 5
00:26:14.000 : en:Глава 6
00:30:49.000 : en:Глава 7
00:35:44.000 : en:Глава 8
00:41:52.000 : en:Глава 9
00:45:36.000 : en:Глава 10
00:49:53.000 : en:Глава 11
00:54:37.000 : en:Глава 12
01:02:21.000 : en:Глава 13
01:07:29.000 : en:Глава 14
01:12:06.000 : en:Глава 15
01:16:56.000 : en:Глава 16
01:22:40.000 : en:Глава 17
01:27:00.000 : en:Глава 18
01:31:11.000 : en:Глава 19



   
Торрент: Зарегистрирован [Декабрь 11, 2014, 11:59 am]
Видео WEBRip Скачать торрент Магнет ссылка Смотреть онлайн
Скачать торрент
[ Размер 15.33 КБ / Просмотров 8 ]
Статус:
Проверен
---
.torrent скачан: 1842 раз
Приватный: Нет (DHT включён)
Размер: 1.46 ГБ (1 570 704 032)
   
Аватара пользователя
sergey
 
Раздал: 42.54 ТБ
Скачал: 198.69 ГБ
Ратио: 265.263
Сообщения: 5358
Зарегистрирован: Август 6, 2012, 2:11 pm
Откуда: СССР

Флаг страны: СССР

  • Похожие торренты
    Ответы
    Просмотры
    Последнее сообщение

Вернуться в Видео WEBRip



Кто сейчас на конференции

Сейчас эту тему просматривают: нет зарегистрированных пользователей и гости: 1

Ресурс не содержит никакой другой информации, кроме описаний отдельных файлов или их групп, имеющихся у некоторых пользователей данного ресурса. Подтверждением наличия данных файлов у пользователя может иногда являться специальный набор значений, представляющих собой результаты применения односторонних хеш-функций к этим файлам или их группам. Данные наборы значений объединяются пользователями в единое целое и могут быть выложены ими вместе с описаниями имеющихся у них файлов. Администрация данного ресурса не имеет физической возможности убедиться, что описания файлов, выложенные нашими пользователями, равно как и созданные ими наборы хешей от файлов, соответствуют реальным файлам имеющимся у пользователей, а не созданы каким-либо иным способом.
cron
Яндекс.Метрика