Викинги / Northmen - A Viking Saga (2014) WEB-DLRip-AVC ExKinoRay | iTunes

Фильмы в формате WEBRip/Avi и т.д.
 Статистика раздачи 
Размер: 1.64 ГБ   |  Зарегистрирован: Январь 2, 2015, 3:57 pm   |   .torrent скачан: 61 раз
Сидеров: 829  [ 0 байт/сек ]   Личеров: 640  [ 0 байт/сек ]  

Викинги / Northmen - A Viking Saga (2014) WEB-DLRip-AVC ExKinoRay | iTunes

Сообщение sergey » Январь 2, 2015, 3:57 pm


Информация о фильме
Название: Викинги
Оригинальное название: Northmen - A Viking Saga
Год выхода: 2014
Жанр: боевик, приключения
Режиссер: Клаудио Фах
В ролях: Джеймс Нортон, Райан Квантен, Чарли Мерфи, Эд Скрейн, Том Хоппер, Лео Грегори, Кен Дюкен, Анатоль Таубман, Николас Расенти, Йохан Хегг
О фильме:
Группа викингов оказалась выброшенной на побережье в тылу врага после того, как в ужасном шторме их судно пошло ко дну. Их единственный шанс выжить — это найти путь к поселению викингов. Но для этого им придется пересечь незнакомые и враждебные земли, на которых они никогда не были.




Выпущено: Швейцария, Германия, ЮАР
Продолжительность: 01:34:00
Озвучивание: Дублированное [iTunes]

Файл
Качество: WEB-DLRip (AVC)
Видео: MPEG-4 AVC, 2111 Кбит/с, 1024x426
Аудио: AC3, 6 ch, 384 Кбит/с

General
Unique ID : 181750267124258600488337461946558575275 (0x88BBD403F700A30780076BFC7975F2AB)
Complete name : C:Vikingi.2014.D.WEB-DLRip.AVC.ExKinoRay.mkv
Format : Matroska
Format version : Version 4 / Version 2
File size : 1.64 GiB
Duration : 1h 34mn
Overall bit rate : 2 496 Kbps
Movie name : Vikingi 2014 from ExKinoRay
Encoded date : UTC 2015-01-01 22:35:39
Writing application : mkvmerge v6.6.0 ('The Edge Of The In Between') built on Dec 1 2013 17:55:00
Writing library : libebml v1.3.0 + libmatroska v1.4.1

Video
ID : 1
Format : AVC
Format/Info : Advanced Video Codec
Format profile : High@L4.1
Format settings, CABAC : Yes
Format settings, ReFrames : 11 frames
Codec ID : V_MPEG4/ISO/AVC
Duration : 1h 34mn
Bit rate : 2 111 Kbps
Width : 1 024 pixels
Height : 426 pixels
Display aspect ratio : 2.40:1
Frame rate mode : Constant
Frame rate : 25.000 fps
Color space : YUV
Chroma subsampling : 4:2:0
Bit depth : 8 bits
Scan type : Progressive
Bits/(Pixel*Frame) : 0.194
Stream size : 1.35 GiB (83%)
Title : Enigma
Writing library : x264 core 133 r2334 a3ac64b
Encoding settings : cabac=1 / ref=11 / deblock=1:-2:-2 / analyse=0x3:0x113 / me=umh / subme=11 / psy=1 / psy_rd=1.05:0.15 / mixed_ref=1 / me_range=32 / chroma_me=1 / trellis=2 / 8x8dct=1 / cqm=0 / deadzone=21,11 / fast_pskip=0 / chroma_qp_offset=-3 / threads=12 / lookahead_threads=2 / sliced_threads=0 / nr=0 / decimate=0 / interlaced=0 / bluray_compat=0 / constrained_intra=0 / bframes=8 / b_pyramid=2 / b_adapt=2 / b_bias=0 / direct=3 / weightb=1 / open_gop=0 / weightp=2 / keyint=250 / keyint_min=25 / scenecut=40 / intra_refresh=0 / rc=2pass / mbtree=0 / bitrate=2111 / ratetol=1.0 / qcomp=0.60 / qpmin=0 / qpmax=69 / qpstep=4 / cplxblur=20.0 / qblur=0.5 / ip_ratio=1.40 / pb_ratio=1.30 / aq=1:1.00
Default : Yes
Forced : No
Color primaries : BT.709
Transfer characteristics : BT.709
Matrix coefficients : BT.709

Audio
ID : 2
Format : AC-3
Format/Info : Audio Coding 3
Mode extension : CM (complete main)
Format settings, Endianness : Big
Codec ID : A_AC3
Duration : 1h 34mn
Bit rate mode : Constant
Bit rate : 384 Kbps
Channel(s) : 6 channels
Channel positions : Front: L C R, Side: L R, LFE
Sampling rate : 48.0 KHz
Bit depth : 16 bits
Compression mode : Lossy
Stream size : 258 MiB (15%)
Title : iTunes
Language : Russian
Default : Yes
Forced : No

Menu
00:00:00.000 : en:Глава 1
00:05:25.000 : en:Глава 2
00:10:57.000 : en:Глава 3
00:16:46.000 : en:Глава 4
00:22:32.000 : en:Глава 5
00:28:01.000 : en:Глава 6
00:33:39.000 : en:Глава 7
00:39:20.000 : en:Глава 8
00:45:19.000 : en:Глава 9
00:51:55.000 : en:Глава 10
00:58:45.000 : en:Глава 11
01:05:39.000 : en:Глава 12
01:12:05.000 : en:Глава 13
01:18:08.000 : en:Глава 14
01:24:37.000 : en:Глава 15



   
Торрент: Зарегистрирован [Январь 2, 2015, 3:57 pm]
Видео WEBRip Скачать торрент Магнет ссылка Смотреть онлайн
Скачать торрент
[ Размер 17.04 КБ / Просмотров 8 ]
Статус:
Проверен
---
.torrent скачан: 61 раз
Приватный: Нет (DHT включён)
Размер: 1.64 ГБ (1 759 461 619)
   
Аватара пользователя
sergey
 
Раздал: 42.54 ТБ
Скачал: 198.69 ГБ
Ратио: 265.234
Сообщения: 5350
Зарегистрирован: Август 6, 2012, 2:11 pm
Откуда: СССР

Флаг страны: СССР

  • Похожие торренты
    Ответы
    Просмотры
    Последнее сообщение

Вернуться в Видео WEBRip



Кто сейчас на конференции

Сейчас эту тему просматривают: нет зарегистрированных пользователей и гости: 1

cron
Ресурс не содержит никакой другой информации, кроме описаний отдельных файлов или их групп, имеющихся у некоторых пользователей данного ресурса. Подтверждением наличия данных файлов у пользователя может иногда являться специальный набор значений, представляющих собой результаты применения односторонних хеш-функций к этим файлам или их группам. Данные наборы значений объединяются пользователями в единое целое и могут быть выложены ими вместе с описаниями имеющихся у них файлов. Администрация данного ресурса не имеет физической возможности убедиться, что описания файлов, выложенные нашими пользователями, равно как и созданные ими наборы хешей от файлов, соответствуют реальным файлам имеющимся у пользователей, а не созданы каким-либо иным способом.
cron
Яндекс.Метрика