Дурак (2014) WEB-DLRip-AVC от ExKinoRay | iTunes

Фильмы в формате WEBRip/Avi и т.д.
 Статистика раздачи 
Размер: 1.65 ГБ   |  Зарегистрирован: Январь 2, 2015, 4:01 pm   |   .torrent скачан: 135 раз
Сидеров: 934  [ 0 байт/сек ]   Личеров: 330  [ 0 байт/сек ]  

Дурак (2014) WEB-DLRip-AVC от ExKinoRay | iTunes

Сообщение sergey » Январь 2, 2015, 4:01 pm

Информация о фильме
Название: Дурак
Год выхода: 2014
Жанр: драма
Режиссер: Юрий Быков
В ролях: Артем Быстров, Наталья Суркова, Юрий Цурило, Борис Невзоров, Кирилл Полухин, Роман Майоров, Иван Брэд, Александр Коршунов, Ольга Самошина, Дарья Мороз
О фильме:
Жизни 800 человек общежития висят буквально на волоске из-за безразличия местных властей. В любую секунду здание может рухнуть. И кто бы мог подумать, что судьбы людей окажутся в руках простого сантехника. Но удастся ли ему что-то изменить и предотвратить катастрофу?



Выпущено: Россия
Продолжительность: 01:56:02
Озвучивание: Оригинальное [iTunes]
Файл
Качество: WEB-DLRip (AVC)
Видео: MPEG-4 AVC, 1655 Кбит/с, 1024x428
Аудио: AC3, 6 ch, 384 Кбит/с
General
Unique ID : 183512940372255990630765643632392597881 (0x8A0F4E843071F3EF84A697EC1B24F179)
Complete name : C:Durak.2014.O.WEB-DLRip.AVC.ExKinoRay.mkv
Format : Matroska
Format version : Version 4 / Version 2
File size : 1.65 GiB
Duration : 1h 56mn
Overall bit rate : 2 040 Kbps
Movie name : Durak 2014 from ExKinoray
Encoded date : UTC 2015-01-01 16:57:16
Writing application : mkvmerge v6.6.0 ('The Edge Of The In Between') built on Dec 1 2013 17:55:00
Writing library : libebml v1.3.0 + libmatroska v1.4.1

Video
ID : 1
Format : AVC
Format/Info : Advanced Video Codec
Format profile : High@L4.1
Format settings, CABAC : Yes
Format settings, ReFrames : 9 frames
Codec ID : V_MPEG4/ISO/AVC
Duration : 1h 56mn
Bit rate : 1 655 Kbps
Width : 1 024 pixels
Height : 428 pixels
Display aspect ratio : 2.40:1
Frame rate mode : Constant
Frame rate : 25.000 fps
Color space : YUV
Chroma subsampling : 4:2:0
Bit depth : 8 bits
Scan type : Progressive
Bits/(Pixel*Frame) : 0.151
Stream size : 1.31 GiB (79%)
Title : Enigma-Vladislav71
Writing library : x264 core 133 r2334 a3ac64b
Encoding settings : cabac=1 / ref=9 / deblock=1:-1:-2 / analyse=0x3:0x113 / me=umh / subme=11 / psy=1 / psy_rd=1.00:0.15 / mixed_ref=1 / me_range=32 / chroma_me=1 / trellis=2 / 8x8dct=1 / cqm=0 / deadzone=21,11 / fast_pskip=0 / chroma_qp_offset=-3 / threads=12 / lookahead_threads=2 / sliced_threads=0 / nr=0 / decimate=0 / interlaced=0 / bluray_compat=0 / constrained_intra=0 / bframes=8 / b_pyramid=2 / b_adapt=2 / b_bias=0 / direct=3 / weightb=1 / open_gop=0 / weightp=2 / keyint=250 / keyint_min=25 / scenecut=40 / intra_refresh=0 / rc=2pass / mbtree=0 / bitrate=1655 / ratetol=1.0 / qcomp=0.60 / qpmin=0 / qpmax=69 / qpstep=4 / cplxblur=20.0 / qblur=0.5 / ip_ratio=1.40 / pb_ratio=1.30 / aq=1:1.00
Language : English
Default : Yes
Forced : No
Color primaries : BT.709
Transfer characteristics : BT.709
Matrix coefficients : BT.709

Audio
ID : 2
Format : AC-3
Format/Info : Audio Coding 3
Mode extension : CM (complete main)
Format settings, Endianness : Big
Codec ID : A_AC3
Duration : 1h 56mn
Bit rate mode : Constant
Bit rate : 384 Kbps
Channel(s) : 6 channels
Channel positions : Front: L C R, Side: L R, LFE
Sampling rate : 48.0 KHz
Bit depth : 16 bits
Compression mode : Lossy
Stream size : 319 MiB (19%)
Language : Russian
Default : Yes
Forced : No

Menu
00:00:00.000 : en:Глава 1
00:02:53.000 : en:Глава 2
00:06:28.000 : en:Глава 3
00:13:21.000 : en:Глава 4
00:21:57.000 : en:Глава 5
00:26:05.000 : en:Глава 6
00:31:02.000 : en:Глава 7
00:36:29.000 : en:Глава 8
00:44:50.000 : en:Глава 9
00:49:34.000 : en:Глава 10
00:55:11.000 : en:Глава 11
01:05:50.000 : en:Глава 12
01:09:42.000 : en:Глава 13
01:14:16.000 : en:Глава 14
01:19:55.000 : en:Глава 15
01:25:52.000 : en:Глава 16
01:31:01.000 : en:Глава 17
01:38:35.000 : en:Глава 18
01:43:15.000 : en:Глава 19
01:48:21.000 : en:Глава 20




   
Торрент: Зарегистрирован [Январь 2, 2015, 4:01 pm]
Видео WEBRip Скачать торрент Магнет ссылка Смотреть онлайн
Скачать торрент
[ Размер 17.2 КБ / Просмотров 7 ]
Статус:
Проверен
---
.torrent скачан: 135 раз
Приватный: Нет (DHT включён)
Размер: 1.65 ГБ (1 775 011 904)
   
Аватара пользователя
sergey
 
Раздал: 42.54 ТБ
Скачал: 198.69 ГБ
Ратио: 265.234
Сообщения: 5348
Зарегистрирован: Август 6, 2012, 2:11 pm
Откуда: СССР

Флаг страны: СССР

  • Похожие торренты
    Ответы
    Просмотры
    Последнее сообщение

Вернуться в Видео WEBRip



Кто сейчас на конференции

Сейчас эту тему просматривают: нет зарегистрированных пользователей и гости: 1

Ресурс не содержит никакой другой информации, кроме описаний отдельных файлов или их групп, имеющихся у некоторых пользователей данного ресурса. Подтверждением наличия данных файлов у пользователя может иногда являться специальный набор значений, представляющих собой результаты применения односторонних хеш-функций к этим файлам или их группам. Данные наборы значений объединяются пользователями в единое целое и могут быть выложены ими вместе с описаниями имеющихся у них файлов. Администрация данного ресурса не имеет физической возможности убедиться, что описания файлов, выложенные нашими пользователями, равно как и созданные ими наборы хешей от файлов, соответствуют реальным файлам имеющимся у пользователей, а не созданы каким-либо иным способом.
cron
Яндекс.Метрика