Левиафан (2014) WEBRip 720p

Фильмы в формате WEBRip/Avi и т.д.
 Статистика раздачи 
Размер: 2.71 ГБ   |  Зарегистрирован: Январь 10, 2015, 5:11 pm   |   .torrent скачан: 40743 раз
Сидеров: 23066  [ 0 байт/сек ]   Личеров: 3904  [ 0 байт/сек ]  

Левиафан (2014) WEBRip 720p

Сообщение sergey » Январь 10, 2015, 5:11 pm

Информация о фильме
Название: Левиафан
Год выхода: 2014
Жанр: Драма
Режиссер: Андрей Звягинцев
В ролях: Алексей Серебряков, Елена Лядова, Владимир Вдовиченков, Роман Мадянов, Анна Уколова, Алексей Розин, Сергей Походаев, Валерий Гришко, Сергей Бачурский, Платон Каменев

О фильме:
Главный герой, Николай (Алексей Серебряков), живёт в маленьком городке близ Баренцева моря, в хижине на берегу небольшой бухты, куда порой заплывают киты. Когда продажный мэр города (Роман Мадянов) пытается конфисковать почти всё имущество Николая — дом, автомастерскую и его собственные земли — главный герой прибегает к помощи старого друга по армии, ныне уважаемого адвоката, Дмитрия (Владимир Вдовиченков), который определяет единственный способ борьбы с политиком — найти на него убойный компромат.

Страна: Россия
Продолжительность: 02:21:04
Перевод: Оригинал

Файл
Формат: m4v
Кодек: h.264
Качество: WEBRip 720p
Видео: 1280x720, 2451 Kbps, 30 fps
Звук: AAC, 44100Hz, stereo, 253kbps
Субтитры: Английские hardcoded

Семпл
General
Complete name : C:UsersSergioDownloadsLeviathan sample.m4v
Format : MPEG-4
Codec ID : M4V
File size : 19.6 MiB
Duration : 1mn 3s
Overall bit rate mode : Variable
Overall bit rate : 2 581 Kbps
Movie name : Leviathan
Genre : Drama
ContentType : Short Film
Recorded date : 23 May 2014
Encoded date : UTC 2015-01-09 19:49:59
Tagged date : UTC 2015-01-09 19:50:00
Cover : Yes
Rating : Explicit
iTunMOVI : / / / / cast / / / name / Aleksei Serebryakov as Nikolay / / / name / Roman Madyanov as Vadim / / / name / The Mayor / / / name / Vladimir Vdovichenkov as Dmitriy / / / name / Elena Lyadova as Lilya / / / name / Sergey Pokhodaev as Roma. / / / directors / / / name / Andrey Zvyagintsev / / / screenwriters / / / name / Oleg Negin / / / name / Andrey Zvyagintsev / / / /
HDVideo : Yes
LongDeion : On the outskirts of a small coastal town in the Barents Sea, where whales sometimes come to its bay, lives an ordinary family: Nikolai (Aleksey Serebryakov), his wife Lilya (Elena Lyadova) and their teenage son Romka. The family is haunted by a local corrupted mayor (Roman Madyanov), who is trying to take away the land, a house and a small auto repair shop from Nikolai. To save their homes Nikolai calls his old Army friend in Moscow (Vladimir Vdovichenkov), who has now become an authoritative attorney. Together they decide to fight back and collect dirt on the mayor.
ContentRating : mpaa|R|400|

Video
ID : 1
Format : AVC
Format/Info : Advanced Video Codec
Format profile : Baseline@L3.1
Format settings, CABAC : No
Format settings, ReFrames : 5 frames
Codec ID : avc1
Codec ID/Info : Advanced Video Coding
Duration : 1mn 3s
Source duration : 1mn 3s
Bit rate : 2 299 Kbps
Width : 1 280 pixels
Height : 720 pixels
Display aspect ratio : 16:9
Frame rate mode : Constant
Frame rate : 30.000 fps
Color space : YUV
Chroma subsampling : 4:2:0
Bit depth : 8 bits
Scan type : Progressive
Bits/(Pixel*Frame) : 0.083
Stream size : 17.5 MiB (89%)
Source stream size : 17.6 MiB (90%)
Title : Core Media Video
Encoded date : UTC 2015-01-09 19:49:59
Tagged date : UTC 2015-01-09 19:50:00
Color primaries : BT.709
Transfer characteristics : BT.709
Matrix coefficients : BT.709

Audio
ID : 2
Format : AAC
Format/Info : Advanced Audio Codec
Format profile : LC
Codec ID : 40
Duration : 1mn 3s
Source duration : 1mn 3s
Bit rate mode : Variable
Bit rate : 251 Kbps
Maximum bit rate : 453 Kbps
Channel(s) : 2 channels
Channel positions : Front: L R
Sampling rate : 44.1 KHz
Compression mode : Lossy
Stream size : 1.93 MiB (10%)
Source stream size : 1.93 MiB (10%)
Title : Core Media Audio
Language : Russian
Encoded date : UTC 2015-01-09 19:49:59
Tagged date : UTC 2015-01-09 19:50:00
   
Торрент: Зарегистрирован [Январь 10, 2015, 5:11 pm]
Видео WEBRip Скачать торрент Магнет ссылка Смотреть онлайн
Скачать торрент
[ Размер 27.66 КБ / Просмотров 16 ]
Статус:
Проверен
---
.torrent скачан: 40743 раз
Приватный: Нет (DHT включён)
Размер: 2.71 ГБ (2 907 101 851)
   
Аватара пользователя
sergey
 
Раздал: 42.54 ТБ
Скачал: 198.69 ГБ
Ратио: 265.234
Сообщения: 5343
Зарегистрирован: Август 6, 2012, 2:11 pm
Откуда: СССР

Флаг страны: СССР

  • Похожие торренты
    Ответы
    Просмотры
    Последнее сообщение

Вернуться в Видео WEBRip



Кто сейчас на конференции

Сейчас эту тему просматривают: нет зарегистрированных пользователей и гости: 1

Ресурс не содержит никакой другой информации, кроме описаний отдельных файлов или их групп, имеющихся у некоторых пользователей данного ресурса. Подтверждением наличия данных файлов у пользователя может иногда являться специальный набор значений, представляющих собой результаты применения односторонних хеш-функций к этим файлам или их группам. Данные наборы значений объединяются пользователями в единое целое и могут быть выложены ими вместе с описаниями имеющихся у них файлов. Администрация данного ресурса не имеет физической возможности убедиться, что описания файлов, выложенные нашими пользователями, равно как и созданные ими наборы хешей от файлов, соответствуют реальным файлам имеющимся у пользователей, а не созданы каким-либо иным способом.
cron
Яндекс.Метрика