Ошибка времени / Time Lapse (2015) WEB-DLRip | L2

Фильмы в формате WEBRip/Avi и т.д.
 Статистика раздачи 
Размер: 1.26 ГБ   |  Зарегистрирован: Январь 21, 2015, 9:00 am   |   .torrent скачан: 59875 раз
Сидеров: 18788  [ 0 байт/сек ]   Личеров: 2579  [ 0 байт/сек ]  

Ошибка времени / Time Lapse (2015) WEB-DLRip | L2

Сообщение sergey » Январь 21, 2015, 9:00 am

Информация о фильме
Название: Ошибка времени
Оригинальное название: Time Lapse
Год выпуска: 2014
Жанр: Фантастика, триллер
Выпущено: США, Uncooperative Pictures
Режиссер: Брэдли Кинг
В ролях: Даниэль Панабэйкер, Мэтт О`Лири, Джордж Финн, Эймин Джозеф, Джейсон Спайсэк, Дэвид Фильоли, Шэрон Мофан, Джудит Дрэйк, Марк С. Хэнсон

О фильме:
Трое приятелей — подающий надежды художник и по совместительству управдом Финн, его девушка официантка и писательница Кэлли и их друг Джаспер, помешанный на собачьих гонках, — находят в комнате соседа-ученого странное изобретение — машину, печатающую фотографии из будущего дня. Теперь Джаспер знает, на каких собак нужно ставить, и Финн и Кэлли могут, наконец, посвятить себя любимым занятиям. Но вскоре визуальные пророчества загадочной машины начинают обескураживать и пугать героев…

Файл
Качество: WEB-DLRip
Видео: XviD, 1537 Кбит/с, 720x400
Аудио: AC3, 2 ch, 192 Кбит/с
Продолжительность: 01:43:47
Перевод: Любительский двухголосый закадровый [RAIM & GUGU]

Семпл

General
Complete name : Time.Lapse.2014.HDRip.XviD.avi
Format : AVI
Format/Info : Audio Video Interleave
File size : 1.26 GiB
Duration : 1h 43mn
Overall bit rate : 1 738 Kbps
Writing application : VirtualDubMod 1.5.10.2 (build 2542/release)
Writing library : VirtualDubMod build 2542/release

Video
ID : 0
Format : MPEG-4 Visual
Format profile : Advanced Simple@L5
Format settings, BVOP : 2
Format settings, QPel : No
Format settings, GMC : No warppoints
Format settings, Matrix : Default (H.263)
Muxing mode : Packed bitstream
Codec ID : XVID
Codec ID/Hint : XviD
Duration : 1h 43mn
Bit rate : 1 537 Kbps
Width : 720 pixels
Height : 400 pixels
Display aspect ratio : 16:9
Frame rate : 23.976 fps
Color space : YUV
Chroma subsampling : 4:2:0
Bit depth : 8 bits
Scan type : Progressive
Compression mode : Lossy
Bits/(Pixel*Frame) : 0.223
Stream size : 1.11 GiB (88%)
Writing library : XviD 64

Audio
ID : 1
Format : AC-3
Format/Info : Audio Coding 3
Mode extension : CM (complete main)
Format settings, Endianness : Big
Codec ID : 2000
Duration : 1h 43mn
Bit rate mode : Constant
Bit rate : 192 Kbps
Channel(s) : 2 channels
Channel positions : Front: L R
Sampling rate : 48.0 KHz
Bit depth : 16 bits
Compression mode : Lossy
Stream size : 143 MiB (11%)
Alignment : Split accross interleaves
Interleave, duration : 42 ms (1.00 video frame)
Interleave, preload duration : 500 ms
   
Торрент: Зарегистрирован [Январь 21, 2015, 9:00 am]
Видео WEBRip Скачать торрент Магнет ссылка Смотреть онлайн
Скачать торрент
[ Размер 13.17 КБ / Просмотров 8 ]
Статус:
Проверен
---
.torrent скачан: 59875 раз
Приватный: Нет (DHT включён)
Размер: 1.26 ГБ (1 353 304 064)
   
Аватара пользователя
sergey
 
Раздал: 42.54 ТБ
Скачал: 198.69 ГБ
Ратио: 265.234
Сообщения: 5343
Зарегистрирован: Август 6, 2012, 2:11 pm
Откуда: СССР

Флаг страны: СССР

  • Похожие торренты
    Ответы
    Просмотры
    Последнее сообщение

Вернуться в Видео WEBRip



Кто сейчас на конференции

Сейчас эту тему просматривают: нет зарегистрированных пользователей и гости: 1

Ресурс не содержит никакой другой информации, кроме описаний отдельных файлов или их групп, имеющихся у некоторых пользователей данного ресурса. Подтверждением наличия данных файлов у пользователя может иногда являться специальный набор значений, представляющих собой результаты применения односторонних хеш-функций к этим файлам или их группам. Данные наборы значений объединяются пользователями в единое целое и могут быть выложены ими вместе с описаниями имеющихся у них файлов. Администрация данного ресурса не имеет физической возможности убедиться, что описания файлов, выложенные нашими пользователями, равно как и созданные ими наборы хешей от файлов, соответствуют реальным файлам имеющимся у пользователей, а не созданы каким-либо иным способом.
cron
Яндекс.Метрика