Две женщины [2014 г., WEBRip]

Фильмы в формате WEBRip/Avi и т.д.
 Статистика раздачи 
Размер: 1.37 ГБ   |  Зарегистрирован: Январь 25, 2015, 6:56 pm   |   .torrent скачан: 0 раз
Сидеров: 26  [ 0 байт/сек ]   Личеров: 5  [ 0 байт/сек ]  

Две женщины [2014 г., WEBRip]

Сообщение sergey » Январь 25, 2015, 6:56 pm


Две женщины

Производство: Россия, Франция, Латвия, Великобритания / Film Base Berlin, Хорошо Продакшн
Режиссер: Вера Глаголева
Жанр: драма
Год выпуска: 2014 г.
Продолжительность: 01:38:15

Мировая премьера: 23 ноября 2014
Российская премьера: 22 января 2015, «Парадиз»
В ролях: Анна Астраханцева, Рэйф Файнс, Александр Балуев, Сильви Тестю, Никита Волков, Анна Леванова, Лариса Малеванная, Бернд Мосс, Сергей Юшкевич, Василий Мищенко
Описание: Волевая молодая женщина состоит в браке с крупным землевладельцем. Но однажды она безответно влюбляется в наставника собственного сына.
Сэмпл КиноПоиск
Качество видео: WEBRip
Контейнер: AVI
Видео кодек: XviD
Аудио кодек: AC3
Видео: 720x384 (1.88:1), 25 fps, XviD build 50 ~1789 kbps avg, 0.26 bit/pixel
Аудио: 48 kHz, AC3 Dolby Digital, 2/0 (L,R) ch, ~192 kbps

Cубтитры: отсутствуют
General
Complete name : ...\Dve.Genschini.2014.WEBRip_[pirat.ca].avi
Format : AVI
Format/Info : Audio Video Interleave
File size : 1.37 GiB
Duration : 1h 38mn
Overall bit rate : 1 992 Kbps
Writing application : VirtualDubMod 1.5.10.2 (build 2540/release)
Writing library : VirtualDubMod build 2540/release

Video
ID : 0
Format : MPEG-4 Visual
Format profile : Advanced Simple@L5
Format settings, BVOP : 2
Format settings, QPel : No
Format settings, GMC : No warppoints
Format settings, Matrix : Default (MPEG)
Codec ID : XVID
Codec ID/Hint : XviD
Duration : 1h 38mn
Bit rate : 1 790 Kbps
Width : 720 pixels
Height : 384 pixels
Display aspect ratio : 1.85:1
Frame rate : 25.000 fps
Color space : YUV
Chroma subsampling : 4:2:0
Bit depth : 8 bits
Scan type : Progressive
Compression mode : Lossy
Bits/(Pixel*Frame) : 0.259
Stream size : 1.23 GiB (90%)
Writing library : XviD 1.2.1 (UTC 2008-12-04)

Audio
ID : 1
Format : AC-3
Format/Info : Audio Coding 3
Mode extension : CM (complete main)
Format settings, Endianness : Big
Codec ID : 2000
Duration : 1h 38mn
Bit rate mode : Constant
Bit rate : 192 Kbps
Channel(s) : 2 channels
Channel positions : Front: L R
Sampling rate : 48.0 KHz
Bit depth : 16 bits
Compression mode : Lossy
Stream size : 135 MiB (10%)
Alignment : Split accross interleaves
Interleave, duration : 40 ms (1.00 video frame)
Interleave, preload duration : 500 ms
   
Торрент: Зарегистрирован [Январь 25, 2015, 6:56 pm]
Видео WEBRip Скачать торрент Магнет ссылка Смотреть онлайн
Скачать торрент
[ Размер 14.13 КБ / Просмотров 15 ]
Статус:
Проверен
---
.torrent скачан: 0 раз
Приватный: Нет (DHT включён)
Размер: 1.37 ГБ (1 467 453 440)
   
Аватара пользователя
sergey
 
Раздал: 42.54 ТБ
Скачал: 198.69 ГБ
Ратио: 265.234
Сообщения: 5350
Зарегистрирован: Август 6, 2012, 2:11 pm
Откуда: СССР

Флаг страны: СССР

  • Похожие торренты
    Ответы
    Просмотры
    Последнее сообщение

Вернуться в Видео WEBRip



Кто сейчас на конференции

Сейчас эту тему просматривают: нет зарегистрированных пользователей и гости: 1

Ресурс не содержит никакой другой информации, кроме описаний отдельных файлов или их групп, имеющихся у некоторых пользователей данного ресурса. Подтверждением наличия данных файлов у пользователя может иногда являться специальный набор значений, представляющих собой результаты применения односторонних хеш-функций к этим файлам или их группам. Данные наборы значений объединяются пользователями в единое целое и могут быть выложены ими вместе с описаниями имеющихся у них файлов. Администрация данного ресурса не имеет физической возможности убедиться, что описания файлов, выложенные нашими пользователями, равно как и созданные ими наборы хешей от файлов, соответствуют реальным файлам имеющимся у пользователей, а не созданы каким-либо иным способом.
cron
Яндекс.Метрика