Убежище / The Hideout (2014) WEB-DLRip | L1

Фильмы в формате WEBRip/Avi и т.д.
 Статистика раздачи 
Размер: 1.36 ГБ   |  Зарегистрирован: Январь 25, 2015, 9:14 pm   |   .torrent скачан: 2770 раз
Сидеров: 138  [ 0 байт/сек ]   Личеров: 6  [ 0 байт/сек ]  

Убежище / The Hideout (2014) WEB-DLRip | L1

Сообщение sergey » Январь 25, 2015, 9:14 pm

Информация о фильме
Название: Убежище
Оригинальное название: The Hideout
Год выхода: 2014
Жанр: ужасы, боевик, триллер
Режиссер: Денни Барнс, Кен Моралес
В ролях: Чжин-хи Чжон, Джефф Тренкл, И. Элайджа Бауман, Энтони Фицджералд, Бритт Прентис, Пэт Лаззара, Майкл Джонс, Mel Wingfield, Карла Шорт, Heath Khan

О фильме: Пять грабителей оказываются на заброшенной ферме после ограбления банка. Но не сумев поделить деньги, они разругиваются в пух и прах. И ко всему прочему начинается...зомби-эпидемия.


Выпущено: США
Продолжительность: 01:17:07
Озвучивание: Любительское (одноголосое) [ВОРОН]



Файл
Формат: AVI (XviD)
Качество: WEB-DLRip
Видео: 2268 kb/s, 720x400
Аудио: AC3, 256 kb/s (2 ch)




Format : AVI
Format/Info : Audio Video Interleave
File size : 1.36 GiB
Duration : 1h 17mn
Overall bit rate : 2 533 Kbps
Writing application : VirtualDubMod 1.5.10.3 | http://www.virtualdub-fr.org || (build 2550/release)
Writing library : VirtualDubMod build 2550/release

Video
ID : 0
Format : MPEG-4 Visual
Format profile : Advanced Simple@L5
Format settings, BVOP : 1
Format settings, QPel : No
Format settings, GMC : No warppoints
Format settings, Matrix : Custom
Codec ID : XVID
Codec ID/Hint : XviD
Duration : 1h 17mn
Bit rate : 2 268 Kbps
Width : 720 pixels
Height : 400 pixels
Display aspect ratio : 16:9
Frame rate : 23.976 fps
Color space : YUV
Chroma subsampling : 4:2:0
Bit depth : 8 bits
Scan type : Progressive
Compression mode : Lossy
Bits/(Pixel*Frame) : 0.328
Stream size : 1.22 GiB (90%)
Writing library : XviD 73

Audio
ID : 1
Format : AC-3
Format/Info : Audio Coding 3
Mode extension : CM (complete main)
Format settings, Endianness : Big
Codec ID : 2000
Duration : 1h 17mn
Bit rate mode : Constant
Bit rate : 256 Kbps
Channel(s) : 2 channels
Channel positions : Front: L R
Sampling rate : 48.0 KHz
Bit depth : 16 bits
Compression mode : Lossy
Stream size : 141 MiB (10%)
Alignment : Split accross interleaves
Interleave, duration : 42 ms (1.00 video frame)
Interleave, preload duration : 500 ms
   
Торрент: Зарегистрирован [Январь 25, 2015, 9:14 pm]
Видео WEBRip Скачать торрент Магнет ссылка Смотреть онлайн
Скачать торрент
[ Размер 14.3 КБ / Просмотров 6 ]
Статус:
Проверен
---
.torrent скачан: 2770 раз
Приватный: Нет (DHT включён)
Размер: 1.36 ГБ (1 465 255 936)
   
Аватара пользователя
sergey
 
Раздал: 42.54 ТБ
Скачал: 198.69 ГБ
Ратио: 265.234
Сообщения: 5348
Зарегистрирован: Август 6, 2012, 2:11 pm
Откуда: СССР

Флаг страны: СССР

  • Похожие торренты
    Ответы
    Просмотры
    Последнее сообщение

Вернуться в Видео WEBRip



Кто сейчас на конференции

Сейчас эту тему просматривают: нет зарегистрированных пользователей и гости: 1

cron
Ресурс не содержит никакой другой информации, кроме описаний отдельных файлов или их групп, имеющихся у некоторых пользователей данного ресурса. Подтверждением наличия данных файлов у пользователя может иногда являться специальный набор значений, представляющих собой результаты применения односторонних хеш-функций к этим файлам или их группам. Данные наборы значений объединяются пользователями в единое целое и могут быть выложены ими вместе с описаниями имеющихся у них файлов. Администрация данного ресурса не имеет физической возможности убедиться, что описания файлов, выложенные нашими пользователями, равно как и созданные ими наборы хешей от файлов, соответствуют реальным файлам имеющимся у пользователей, а не созданы каким-либо иным способом.
cron
Яндекс.Метрика