Сердце звезды [01-89 из 89] (2014) HDTVRip от Files-x

Отечественные и зарубежные сериалы

Оценка торрента

5
0
Голосов нет
4
0
Голосов нет
3
0
Голосов нет
2
0
Голосов нет
1
0
Голосов нет
 
Всего голосов : 0

 Статистика раздачи 
Размер: 47.77 ГБ   |  Зарегистрирован: Март 14, 2015, 1:46 pm   |   .torrent скачан: 10 раз
Сидеров: 20  [ 0 байт/сек ]   Личеров: 15  [ 0 байт/сек ]  

Сердце звезды [01-89 из 89] (2014) HDTVRip от Files-x

Сообщение Denny » Январь 30, 2015, 3:19 pm

Информация о фильме
Оригинальное название: Сердце звезды
Год выхода: 2014
Жанр: Мелодрама
Режиссер: Сергей Борчуков, Сахат Дурсунов, Эдуард Пальмов
В ролях: Лилия Лаврова, Ирина Ефремова, Наталия Медведева, Александр Волков, Валерий Афанасьев, Александр Клюквин, Ираида Краснопольская, Максим Фролов, Ярослав Гарнаев, Александр Зачиняев, Виталий Герасимов, Мария Денисова, Василий Брыков, Артем Кузнецов, Данила Аболихин, Артур Псакин, Фёдор Рощин, Юлия Сорокина, Григорий Середа, Анатолий Завьялов, Игорь Шаройко, Иван Дементьев, Елена Коллегова

О фильме:
Погибает популярная певица Александра Гринева, более известная под сценическим псевдонимом Сашка. Жизнь 35-летней певицы была полна событий, и даже ее смерть произвела фурор. Многие не верят в саму возможность смерти Гриневой. Однако трагическая гибель певицы никак не может быть несчастным случаем, уж слишком много народу тем или иным образом были заинтересованы в ее смерти начиная с ее бывшего мужа и заканчивая отцом девушки, которой пересадили сердце Александры.

Страна: Россия
Студия: Студия "Гармония"
Продолжительность: 89 x ~ 00:45:00
Перевод: Не требуется

Файл
Качество: HDTVRip
Видео: XviD, ~ 1550 Кбит/с, 720x400
Звук: AC3, 2 ch, 192 Кбит/с

General
Complete name : Serdtse.zvezdy..2014.HDTVRip.RG.Russkie.serialy.&.Files-xSerdtse.zvezdy.001.seriya.2014.HDTVRip.RG.Russkie.serialy.&.Files-x.avi
Format : AVI
Format/Info : Audio Video Interleave
File size : 549 MiB
Duration : 44mn 3s
Overall bit rate : 1 743 Kbps
Writing application : VirtualDubMod 1.5.10.3 | http://www.virtualdub-fr.org || (build 2550/release)
Writing library : VirtualDubMod build 2550/release

Video
ID : 0
Format : MPEG-4 Visual
Format profile : Advanced Simple@L5
Format settings, BVOP : Yes
Format settings, QPel : No
Format settings, GMC : No warppoints
Format settings, Matrix : Default (H.263)
Codec ID : XVID
Codec ID/Hint : XviD
Duration : 44mn 3s
Bit rate : 1 541 Kbps
Width : 720 pixels
Height : 400 pixels
Display aspect ratio : 16:9
Frame rate : 25.000 fps
Color space : YUV
Chroma subsampling : 4:2:0
Bit depth : 8 bits
Scan type : Progressive
Compression mode : Lossy
Bits/(Pixel*Frame) : 0.214
Stream size : 486 MiB (88%)
Writing library : XviD 1.2.1 (UTC 2008-12-04)

Audio
ID : 1
Format : AC-3
Format/Info : Audio Coding 3
Mode extension : CM (complete main)
Format settings, Endianness : Big
Codec ID : 2000
Duration : 44mn 3s
Bit rate mode : Constant
Bit rate : 192 Kbps
Channel(s) : 2 channels
Channel positions : Front: L R
Sampling rate : 48.0 KHz
Bit depth : 16 bits
Compression mode : Lossy
Stream size : 60.5 MiB (11%)
Alignment : Split accross interleaves
Interleave, duration : 40 ms (1.00 video frame)
Interleave, preload duration : 500 ms


   
Торрент: Зарегистрирован [Март 14, 2015, 1:46 pm]
Сериалы Скачать торрент Магнет ссылка Смотреть онлайн
Скачать торрент
[ Размер 129.92 КБ / Просмотров 0 ]
Статус:
Проверен
---
.torrent скачан: 10 раз
Приватный: Нет (DHT включён)
Размер: 47.77 ГБ (51 291 733 294)
   
Аватара пользователя
Denny
 
Раздал: 7.49 ТБ
Скачал: 807.97 ГБ
Ратио: 1007.499
Сообщения: 1934
Зарегистрирован: Ноябрь 19, 2012, 10:49 pm
Откуда: Россия

Флаг страны: Russia

  • Похожие торренты
    Ответы
    Просмотры
    Последнее сообщение

Вернуться в Сериалы



Кто сейчас на конференции

Сейчас эту тему просматривают: нет зарегистрированных пользователей и гости: 1

Ресурс не содержит никакой другой информации, кроме описаний отдельных файлов или их групп, имеющихся у некоторых пользователей данного ресурса. Подтверждением наличия данных файлов у пользователя может иногда являться специальный набор значений, представляющих собой результаты применения односторонних хеш-функций к этим файлам или их группам. Данные наборы значений объединяются пользователями в единое целое и могут быть выложены ими вместе с описаниями имеющихся у них файлов. Администрация данного ресурса не имеет физической возможности убедиться, что описания файлов, выложенные нашими пользователями, равно как и созданные ими наборы хешей от файлов, соответствуют реальным файлам имеющимся у пользователей, а не созданы каким-либо иным способом.
cron
Яндекс.Метрика